<?xml version="1.0" standalone="no"?>
<!DOCTYPE svg PUBLIC "-//W3C//DTD SVG 1.1//EN" "http://www.w3.org/Graphics/SVG/1.1/DTD/svg11.dtd" >
<svg xmlns="http://www.w3.org/2000/svg">
<metadata>Generated by IcoMoon</metadata>
<defs>
<font id="Aslo" horiz-adv-x="1024">
<font-face units-per-em="1024" ascent="960" descent="-64" />
<missing-glyph horiz-adv-x="1024" />
<glyph unicode="&#x20;" horiz-adv-x="512" d="" />
<glyph unicode="&#xe90b;" glyph-name="filter" d="M768 746.667c0 70.571-57.429 128-128 128h-512c-70.571 0-128-57.429-128-128v-101.12l256-298.667v-176.213l256-192v368.213l256 298.667v101.12zM682.667 677.12l-256-298.667v-229.12l-85.333 64v165.12l-256 298.667v69.547c0 23.509 19.157 42.667 42.667 42.667h512c23.509 0 42.667-19.157 42.667-42.667v-69.547zM597.333 149.333h426.667v-85.333h-426.667v85.333zM597.333 320h426.667v-85.333h-426.667v85.333zM1024 490.667v-85.333h-349.525l73.131 85.333h276.352z" />
<glyph unicode="&#xe924;" glyph-name="sort" d="M878.805 721.195l-110.805 110.805v-896h-85.333v896l-109.611-109.611-60.331 60.331 152.277 152.277c33.237 33.237 87.424 33.237 120.661 0l153.472-153.472-60.331-60.331zM341.333 64v896h-85.333v-896l-110.635 110.635-60.331-60.331 153.301-153.301c16.64-16.64 38.485-24.96 60.331-24.96s43.691 8.32 60.331 24.96l152.491 152.448-60.331 60.331-109.824-109.781z" />
<glyph unicode="&#xe925;" glyph-name="reorder" d="M0 789.333h1024v-85.333h-1024v85.333zM0 576h1024v-85.333h-1024v85.333zM0 149.333h1024v-85.333h-1024v85.333zM0 362.667h1024v-85.333h-1024v85.333z" />
<glyph unicode="&#xe926;" glyph-name="move" d="M998.997 508.331l-138.368 138.368-60.331-60.331 95.701-95.701h-341.333v341.333l95.701-95.701 60.331 60.331-138.368 138.368c-15.441 15.437-36.771 24.984-60.331 24.984s-44.889-9.548-60.331-24.985l-138.368-138.368 60.331-60.331 95.701 95.701v-341.333h-341.333l95.701 95.701-60.331 60.331-138.368-138.368c-15.437-15.441-24.984-36.771-24.984-60.331s9.548-44.889 24.985-60.331l138.368-138.368 60.331 60.331-95.701 95.701h341.333v-341.333l-95.701 95.659-60.331-60.331 138.368-138.325c15.441-15.437 36.771-24.984 60.331-24.984s44.889 9.548 60.331 24.985l138.368 138.325-60.331 60.331-95.701-95.659v341.333h341.333l-95.701-95.701 60.331-60.331 138.368 138.368c15.437 15.441 24.984 36.771 24.984 60.331s-9.548 44.889-24.985 60.331v0z" />
<glyph unicode="&#xe927;" glyph-name="zoom-out" d="M1023.78-3.58l-266.6 266.6c149.074 182.32 122.12 450.97-60.2 600.042s-450.97 122.12-600.042-60.2-122.12-450.97 60.2-600.042c157.042-128.404 382.802-128.404 539.842 0l266.6-266.6 60.2 60.2zM427.74 191.666c-188.106 0-340.594 152.49-340.594 340.594s152.488 340.594 340.594 340.594 340.594-152.49 340.594-340.594c-0.21-188.018-152.576-340.384-340.594-340.594zM257.442 574.834h340.594v-85.148h-340.594v85.148z" />
<glyph unicode="&#xe928;" glyph-name="zoom-in" d="M1024-3.788l-266.658 266.658c149.106 182.36 122.148 451.066-60.212 600.172s-451.066 122.148-600.172-60.214-122.148-451.066 60.212-600.172c157.076-128.432 382.884-128.432 539.958 0l266.66-266.656 60.212 60.212zM427.832 191.5c-188.146 0-340.668 152.522-340.668 340.668s152.522 340.668 340.668 340.668 340.668-152.522 340.668-340.668c-0.212-188.058-152.61-340.456-340.668-340.668zM470.416 702.502h-85.168v-127.75h-127.75v-85.168h127.75v-127.75h85.168v127.75h127.75v85.168h-127.75z" />
<glyph unicode="&#xe929;" glyph-name="user" d="M512 448c-50.632 0-100.127 15.014-142.226 43.144s-74.911 68.111-94.287 114.89c-19.377 46.776-24.445 98.25-14.566 147.909 9.876 49.659 34.258 95.274 70.060 131.076 35.804 35.802 81.418 60.184 131.077 70.062s101.133 4.808 147.909-14.568c46.779-19.376 86.761-52.188 114.89-94.287s43.144-91.594 43.144-142.226c-0.067-67.876-27.062-132.951-75.057-180.943-47.992-47.995-113.068-74.99-180.943-75.057zM512 874.666c-33.754 0-66.752-10.009-94.817-28.762s-49.94-45.408-62.858-76.593c-12.918-31.185-16.297-65.501-9.713-98.607 6.587-33.106 22.84-63.516 46.71-87.386 23.867-23.867 54.277-40.12 87.383-46.707 33.106-6.584 67.423-3.205 98.606 9.713 31.186 12.918 57.841 34.793 76.593 62.858 18.755 28.065 28.764 61.064 28.764 94.817 0 45.264-17.981 88.673-49.987 120.679-32.008 32.006-75.418 49.987-120.681 49.987zM510.070 248.996c162.092 0 285.588-127.516 285.588-301.404v-11.592h96.481v11.592c3.86 224.12-165.949 398.008-382.070 398.008-212.26 0-382.070-173.888-382.070-398.008v-11.592h96.482v11.592c0 173.888 123.498 301.404 285.587 301.404z" />
<glyph unicode="&#xe92a;" glyph-name="image" d="M204.8 857.6h614.4c27.159 0 53.204-10.789 72.407-29.992 19.205-19.204 29.993-45.25 29.993-72.408v-716.8h-819.2v716.8c0 27.158 10.789 53.204 29.992 72.408s45.25 29.992 72.408 29.992zM819.2 789.333h-614.4c-9.053 0-17.735-3.596-24.136-9.997s-9.997-15.083-9.997-24.136v-600.269l371.336 371.336c19.203 19.197 45.243 29.983 72.397 29.983s53.194-10.785 72.397-29.983l166.536-166.536v395.469c0 9.053-3.594 17.735-9.997 24.136-6.4 6.401-15.084 9.997-24.136 9.997zM853.332 263.201l-214.799 214.802c-6.403 6.4-15.081 9.994-24.133 9.994s-17.731-3.594-24.133-9.994l-371.336-371.336h634.401v156.534zM375.45 516.275c-20.252 0-40.051 6.006-56.891 17.257s-29.965 27.246-37.714 45.957c-7.752 18.711-9.779 39.299-5.827 59.164 3.95 19.863 13.704 38.108 28.024 52.429s32.566 24.074 52.431 28.025c19.863 3.951 40.451 1.923 59.162-5.827 18.714-7.75 34.706-20.874 45.957-37.714s17.257-36.639 17.257-56.891c0-27.159-10.788-53.204-29.993-72.407-19.203-19.205-45.248-29.993-72.407-29.993zM375.45 652.808c-6.751 0-13.35-2.002-18.962-5.752-5.614-3.75-9.989-9.080-12.572-15.319-2.583-6.236-3.259-13.1-1.943-19.72 1.316-6.623 4.567-12.703 9.341-17.477s10.857-8.026 17.477-9.341c6.62-1.318 13.484-0.643 19.722 1.943 6.236 2.583 11.566 6.958 15.316 12.57 3.753 5.614 5.752 12.214 5.752 18.964 0 9.052-3.594 17.736-9.997 24.136-6.4 6.4-15.084 9.997-24.136 9.997z" />
<glyph unicode="&#xe92b;" glyph-name="delete" d="M885.43 821.417c-23.206 23.17-54.659 36.183-87.45 36.183-32.794 0-64.246-13.014-87.452-36.183l-608.128-608.118v-174.899h174.902l608.128 608.118c23.163 23.209 36.17 54.661 36.17 87.45s-13.007 64.239-36.17 87.449zM249.176 106.668h-78.508v78.505l454.32 453.972 78.508-78.508-454.32-453.97zM837.164 694.781l-85.573-85.571-78.336 78.505 85.54 85.436c10.409 10.41 24.53 16.259 39.252 16.259s28.844-5.849 39.255-16.259c10.412-10.411 16.259-24.53 16.259-39.253s-5.847-28.843-16.259-39.253l-0.138 0.136z" />
<glyph unicode="&#xe92c;" glyph-name="edit" d="M887.457 721.067h-204.8v68.266c0 37.649-30.618 68.267-68.265 68.267h-204.8c-37.65 0-68.268-30.618-68.268-68.267v-68.266h-204.8v-68.267h56.115l58.129-523.297c5.768-51.917 49.527-91.103 101.786-91.103h317.576c52.257 0 96.018 39.15 101.752 91.103l58.127 523.297h57.413l0.033 68.267zM409.592 789.333h204.8v-68.266h-204.8v68.266zM704.026 137.044c-1.912-17.306-16.486-30.377-33.928-30.377h-317.542c-17.408 0-32.018 13.071-33.93 30.377l-57.308 515.756h500.052l-57.311-515.756h-0.033zM376.927 292.933l86.799 86.799-86.799 86.802 48.264 48.264 86.802-86.799 86.799 86.799 48.266-48.264-86.802-86.802 86.802-86.799-48.266-48.266-86.799 86.802-86.802-86.802-48.264 48.266z" />
<glyph unicode="&#xe92d;" glyph-name="expand" d="M450.798 338.534l-231.867-231.867h156.536v-68.268h-204.801c-37.649 0-68.267 30.618-68.267 68.268v204.8h68.267v-156.536l231.868 231.867 48.264-48.264zM853.332 857.6h-204.8v-68.267h156.536l-231.867-231.868 48.264-48.264 231.867 231.867v-156.536h68.268v204.801c0 37.649-30.618 68.267-68.268 68.267z" />
<glyph unicode="&#xe92e;" glyph-name="grid" d="M819.2 857.6h-614.4c-58.027 0-102.4-44.373-102.4-102.4v-102.4h819.2v102.4c0 58.027-47.788 102.4-102.4 102.4zM853.332 721.067h-682.666v34.133c0 20.48 13.653 34.133 34.133 34.133h614.4c20.48 0 34.132-13.653 34.132-34.133v-34.133zM102.4 294.4v-238.932h235.52v238.932h-235.52zM279.892 113.492h-119.466v122.88h119.466v-122.88zM102.4 601.6v-238.932h235.52v238.932h-235.52zM279.892 420.692h-119.466v122.88h119.466v-122.88zM686.080 294.4v-238.932h235.52v238.932h-235.52zM863.572 113.492h-119.465v122.88h119.465v-122.88zM686.080 601.6v-238.932h235.52v238.932h-235.52zM863.572 420.692h-119.465v122.88h119.465v-122.88zM392.532 294.4v-238.932h235.52v238.932h-235.52zM570.028 113.492h-119.468v122.88h119.468v-122.88zM392.532 601.6v-238.932h235.52v238.932h-235.52zM570.028 420.692h-119.468v122.88h119.468v-122.88z" />
<glyph unicode="&#xe92f;" glyph-name="heart-fill" d="M746.673 920.875c-48.044-0.747-95.040-14.159-136.243-38.881s-75.154-59.878-98.422-101.919c-23.27 42.041-57.221 77.197-98.422 101.919-41.203 24.722-88.202 38.134-136.246 38.881-76.59-3.327-148.749-36.832-200.713-93.194s-79.511-131-76.62-207.606c0-289.068 467.457-622.935 487.338-637.1l24.663-17.452 24.66 17.452c19.884 14.080 487.34 348.032 487.34 637.1 2.89 76.605-24.655 151.244-76.621 207.606s-124.124 89.866-200.714 93.194z" />
<glyph unicode="&#xe930;" glyph-name="plus" d="M874.038 405.34v85.32h-319.378v319.378h-85.32v-319.378h-319.379v-85.32h319.379v-319.38h85.32v319.38h319.378z" />
<glyph unicode="&#xe931;" glyph-name="x" d="M747.52 819.214h125.629l-274.432-314.456 322.883-427.973h-252.782l-198.129 259.51-226.451-259.51h-125.747l293.507 336.458-309.599 405.913h259.218l178.821-237.157 207.081 237.216zM703.342 152.151h69.632l-449.39 595.617h-74.664l454.422-595.617z" />
<glyph unicode="&#xe932;" glyph-name="whatsapp" d="M615.905 397.12c-16.474-6.733-26.995-32.522-37.67-45.696-5.476-6.751-12.004-7.803-20.419-4.421-61.829 24.632-109.225 65.892-143.342 122.79-5.78 8.824-4.744 15.793 2.227 23.987 10.301 12.14 23.255 25.925 26.043 42.278 6.188 36.178-41.106 148.393-103.562 97.546-179.724-146.455 299.809-534.886 386.355-324.8 24.481 59.551-82.33 99.5-109.632 88.315zM512.003 88.824c-63.562 0-126.106 16.899-180.861 48.891-8.791 5.151-19.415 6.513-29.24 3.843l-118.983-32.658 41.446 91.308c5.644 12.429 4.199 26.895-3.774 37.944-44.336 61.455-67.779 134.011-67.779 209.848 0 198.067 161.124 359.193 359.191 359.193 198.065 0 359.173-161.126 359.173-359.193 0-198.049-161.124-359.176-359.173-359.176zM512.003 883.2c-239.972 0-435.198-195.228-435.198-435.2 0-84.421 23.97-165.494 69.513-235.858l-66.113-145.605c-6.103-13.448-3.876-29.189 5.678-40.392 7.344-8.586 17.969-13.345 28.934-13.345 24.514 0 158.185 42.007 192.202 51.341 62.881-33.644 133.414-51.341 204.984-51.341 239.954 0 435.197 195.246 435.197 435.2 0 239.972-195.244 435.2-435.197 435.2z" />
<glyph unicode="&#xe933;" glyph-name="check" d="M418.348 230.7h0.724c34.176 0 66.304 13.312 90.496 37.504l349.868 349.865-60.332 60.332-349.868-349.868c-8.105-8.148-17.236-13.097-30.42-12.5-11.476 0.044-22.228 4.608-30.252 12.844l-173.994 177.664-60.971-59.692 173.952-177.708c24.108-24.617 56.32-38.272 90.752-38.484l0.044 0.044z" />
<glyph unicode="&#xe934;" glyph-name="angle-down" d="M512.015 298.721c-11.205-0.020-22.303 2.176-32.655 6.459-10.355 4.283-19.761 10.57-27.676 18.501l-225.834 225.876 60.33 60.332 225.836-225.836 225.836 225.836 60.329-60.332-225.833-225.833c-7.913-7.939-17.316-14.234-27.671-18.524-10.353-4.291-21.453-6.495-32.66-6.479z" />
<glyph unicode="&#xe935;" glyph-name="angle-left" d="M362.732 448.003c-0.018 11.205 2.176 22.303 6.459 32.655s10.573 19.758 18.501 27.674l225.879 225.836 60.329-60.332-225.833-225.833 225.833-225.836-60.329-60.332-225.836 225.836c-7.939 7.913-14.234 17.316-18.524 27.668-4.291 10.355-6.492 21.455-6.479 32.663z" />
<glyph unicode="&#xe936;" glyph-name="angle-right" d="M661.268 447.997c0.018-11.205-2.176-22.303-6.459-32.655s-10.573-19.758-18.501-27.674l-225.879-225.836-60.329 60.332 225.833 225.833-225.833 225.836 60.329 60.33 225.836-225.834c7.939-7.913 14.234-17.316 18.524-27.668 4.291-10.355 6.492-21.455 6.479-32.663z" />
<glyph unicode="&#xe937;" glyph-name="angle-up" d="M511.985 597.279c11.205 0.020 22.303-2.176 32.655-6.459 10.355-4.283 19.761-10.57 27.676-18.501l225.833-225.876-60.329-60.332-225.836 225.836-225.836-225.836-60.33 60.332 225.834 225.833c7.913 7.939 17.316 14.234 27.671 18.524 10.353 4.291 21.453 6.495 32.66 6.479z" />
<glyph unicode="&#xe938;" glyph-name="aslo" d="M1024-61.44h-558.080l-64 148.48h368.64l-258.56 678.4-322.56-826.88h-189.44l386.56 1021.44h248.32l2.56-5.12 386.56-1016.32zM476.16-48.64h529.92l-378.88 995.84h-230.4l-378.88-995.84h161.28l332.8 849.92 279.040-727.040h-368.64l53.76-122.88z" />
<glyph unicode="&#xe939;" glyph-name="book" d="M517.12-12.8l-5.12 33.28-5.12-33.28-499.2 92.16v709.12c0 35.84 15.36 69.12 43.52 92.16s64 33.28 97.28 25.6l263.68-48.64c40.96-7.68 74.24-28.16 99.84-58.88 23.040 30.72 58.88 53.76 99.84 58.88l263.68 48.64c35.84 5.12 71.68-2.56 97.28-25.6 28.16-23.040 43.52-56.32 43.52-92.16v-711.68l-499.2-89.6zM76.8 135.68l401.92-71.68v634.88c0 46.080-33.28 84.48-76.8 92.16l-263.68 48.64c-15.36 2.56-30.72-2.56-43.52-10.24-10.24-10.24-17.92-25.6-17.92-40.96v-652.8zM545.28 698.88v-637.44l401.92 74.24v652.8c0 15.36-7.68 30.72-17.92 38.4-12.8 10.24-25.6 12.8-40.96 10.24l-266.24-46.080c-43.52-7.68-76.8-46.080-76.8-92.16z" />
<glyph unicode="&#xe93a;" glyph-name="close" d="M798.18 673.836l-60.329 60.33-225.836-225.834-225.836 225.834-60.33-60.33 225.834-225.836-225.834-225.836 60.33-60.329 225.836 225.833 225.836-225.833 60.329 60.329-225.833 225.836 225.833 225.836z" />
<glyph unicode="&#xe93b;" glyph-name="csv" d="M330.086 234.668h53.332v-0.64c0-46.679-38.484-84.695-85.844-84.695-46.337 0-83.926 37.591-83.926 83.927l-0.341 88.148c0 46.336 37.589 83.924 83.927 83.924 47.316 0 85.844-38.016 85.844-84.692v-0.64h-53.332v0.64c0 16.812-14.592 30.976-32 31.276-17.152-0.3-30.935-14.208-30.892-31.404 0-4.052 0.34-80.468 0.34-86.356-0.041-17.196 13.74-31.104 30.892-31.404 17.408 0.3 32 14.42 32 31.276v0.64zM487.483 402.432c-28.628-8.62-48.896-31.188-52.864-58.88-3.712-26.028 7.596-51.072 33.152-67.372 0 0 28.928-12.928 61.015-24.745 6.784-2.519 28.672-11.776 26.025-26.496-1.961-10.924-15.401-22.231-34.56-22.231-19.968 0-39.168 8.023-51.369 21.504l-17.92 19.756-39.511-35.84 17.92-19.712c22.487-24.788 55.639-38.996 90.88-38.996 43.564 0 80.215 27.86 87.040 66.217 5.164 28.928-7.936 66.647-60.073 85.932-28.076 10.368-53.632 21.588-54.272 21.588-6.103 4.14-5.888 10.368-5.548 12.887 0.512 3.369 2.944 11.648 15.444 15.401 28.032 8.364 53.975-11.904 55.040-12.756l20.311-17.024 34.345 40.832-20.436 17.152c-1.92 1.62-48.428 39.852-104.62 22.912v-0.128zM757.819 149.332l53.42 256h-53.42l-29.184-140.032-35.241 140.032h-53.42l64.468-256h53.376zM938.683 636.332v-700.332h-853.333v896c0 70.571 57.43 128 128 128h401.665l323.668-323.668zM640.018 661.332h153.001l-153.001 153.004v-153.004zM853.35 576h-298.668v298.667h-341.333c-23.552 0-42.666-19.115-42.666-42.667v-810.668h682.667v554.668z" />
<glyph unicode="&#xe93c;" glyph-name="download" d="M615.014 960h-401.665c-70.57 0-128-57.429-128-128v-896h853.333v700.332l-323.668 323.668zM640.018 814.336l153.001-153.004h-153.001v153.004zM853.35 21.332h-682.667v810.668c0 23.509 19.114 42.667 42.666 42.667h341.333v-298.667h298.668v-554.668zM554.683 234.368l97.751 98.22 60.329-60.332-140.756-140.756c-16.556-16.556-38.272-24.791-59.988-24.791-21.719 0-43.479 8.236-59.991 24.791l-140.756 140.756 60.332 60.332 97.748-97.751v255.872h85.332v-256.34z" />
<glyph unicode="&#xe93d;" glyph-name="envelope" d="M896 908.8h-768c-33.948 0-66.505-13.486-90.51-37.49s-37.49-56.562-37.49-90.51v-810.668h1024v810.668c0 33.948-13.486 66.505-37.491 90.51-24.003 24.005-56.561 37.49-90.509 37.49zM128 823.467h768c11.315 0 22.17-4.495 30.17-12.497 8.003-8.002 12.498-18.854 12.498-30.17v-28.459l-336.128-336.17c-24.046-23.951-56.602-37.396-90.54-37.396s-66.493 13.445-90.54 37.396l-336.127 336.17v28.459c0 11.316 4.495 22.168 12.497 30.17s18.854 12.497 30.17 12.497zM85.333 55.468v576l275.798-275.628c40.046-39.946 94.303-62.38 150.868-62.38s110.822 22.433 150.868 62.38l275.799 275.628v-576h-853.334z" />
<glyph unicode="&#xe93e;" glyph-name="eye-closed" d="M1016.358 482.944c-41.224 89.398-101.599 168.637-176.855 232.106l129.367 129.365-60.375 60.416-140.5-140.373c-77.765 44.983-166.164 68.305-256 67.541-320 0-466.902-267.135-504.363-349.055-5.029-10.98-7.632-22.912-7.632-34.988s2.603-24.008 7.632-34.988c41.222-89.398 101.599-168.637 176.853-232.105l-129.322-129.367 60.33-60.329 140.502 140.372c77.765-44.982 166.165-68.306 256-67.54 320 0 466.9 267.136 504.364 349.056 5.018 10.964 7.616 22.884 7.616 34.944s-2.598 23.977-7.616 34.944zM85.328 447.529c32 70.188 157.568 299.137 426.667 299.137 66.97 0.391 133.061-15.232 192.768-45.569l-75.308-75.305c-40.963 27.195-90.074 39.38-138.998 34.488s-94.651-26.56-129.418-61.327c-34.767-34.767-56.435-80.492-61.327-129.416-4.892-48.927 7.296-98.035 34.491-139l-88.704-88.704c-68.251 55.58-123.014 125.906-160.171 205.696zM639.995 448c0-33.948-13.486-66.506-37.491-90.511-24.005-24.003-56.561-37.489-90.509-37.489-19.008 0.072-37.752 4.449-54.828 12.8l170.028 170.025c8.351-17.075 12.726-35.82 12.8-54.825zM383.995 448c0 33.948 13.486 66.504 37.491 90.509 24.003 24.005 56.561 37.491 90.509 37.491 19.008-0.074 37.752-4.449 54.828-12.8l-170.028-170.028c-8.351 17.075-12.726 35.82-12.8 54.828zM511.995 149.332c-66.97-0.392-133.064 15.232-192.768 45.568l75.308 75.308c40.963-27.197 90.071-39.383 138.998-34.491 48.924 4.892 94.648 26.56 129.418 61.327 34.767 34.767 56.435 80.494 61.325 129.418 4.892 48.924-7.293 98.035-34.488 138.998l88.66 88.66c68.385-55.629 123.18-126.124 160.215-206.121-32.599-70.7-158.208-298.668-426.668-298.668z" />
<glyph unicode="&#xe93f;" glyph-name="eye" d="M1016.358 482.944c-37.463 81.92-184.364 349.056-504.364 349.056s-466.902-267.136-504.363-349.056c-5.029-10.977-7.632-22.912-7.632-34.988s2.603-24.008 7.632-34.985c37.461-81.836 184.363-348.972 504.363-348.972s466.9 267.136 504.364 349.056c5.018 10.967 7.616 22.884 7.616 34.944s-2.598 23.977-7.616 34.944zM511.995 149.332c-269.099 0-394.667 228.951-426.667 298.199 32 70.185 157.568 299.135 426.667 299.135 268.46 0 394.068-227.967 426.668-298.667-32.599-70.7-158.208-298.668-426.668-298.668zM511.985 661.332c-42.194 0-83.441-12.511-118.523-35.953s-62.426-56.76-78.572-95.741c-16.148-38.981-20.372-81.876-12.142-123.259 8.233-41.382 28.552-79.393 58.386-109.23 29.834-29.834 67.848-50.153 109.23-58.383 41.382-8.233 84.278-4.006 123.259 12.14s72.3 43.489 95.741 78.572c23.439 35.082 35.953 76.329 35.953 118.523-0.069 56.558-22.566 110.781-62.559 150.774s-94.216 62.492-150.774 62.559zM511.985 320c-25.318 0-50.066 7.506-71.114 21.571s-37.455 34.056-47.142 57.446c-9.69 23.388-12.224 49.124-7.286 73.953 4.941 24.829 17.132 47.639 35.031 65.539 17.902 17.902 40.709 30.093 65.539 35.031s50.565 2.404 73.956-7.283c23.388-9.69 43.379-26.094 57.444-47.145 14.065-21.048 21.573-45.796 21.573-71.112 0-33.948-13.486-66.506-37.491-90.511-24.005-24.003-56.563-37.489-90.509-37.489z" />
<glyph unicode="&#xe940;" glyph-name="facebook" d="M511.967 872.95c-234.668 0-426.667-191.573-426.667-427.52 0-213.332 156.16-390.4 360.107-422.4v298.668h-108.372v123.732h108.372v94.292c0 107.095 63.572 165.975 161.28 165.975 46.508 0 95.148-8.107 95.148-8.107v-105.388h-53.76c-52.908 0-69.548-32.852-69.548-66.56v-80.212h118.612l-19.2-123.732h-99.412v-298.668c100.541 15.88 192.095 67.18 258.13 144.637 66.035 77.46 102.205 175.974 101.978 277.763 0 235.948-192 427.52-426.668 427.52z" />
<glyph unicode="&#xe941;" glyph-name="globe" d="M512-64c-101.263 0-200.253 30.029-284.452 86.287s-149.822 136.223-188.574 229.778c-38.752 93.558-48.891 196.503-29.136 295.821s68.519 190.548 140.123 262.153c71.604 71.604 162.835 120.368 262.152 140.123s202.266 9.616 295.821-29.136c93.555-38.752 173.519-104.376 229.778-188.574s86.287-183.189 86.287-284.452c-0.146-135.747-54.136-265.889-150.124-361.876s-226.13-149.978-361.876-150.124zM880.94 234.668h-137.431c-30.764-71.299-71.27-137.981-120.361-198.144 108.649 29.563 201.272 100.754 257.792 198.144zM704 448c-0.351 43.441-7.196 86.584-20.308 128h-343.383c-13.112-41.416-19.958-84.559-20.308-128 0.351-43.441 7.196-86.584 20.308-128h343.383c13.112 41.416 19.958 84.559 20.308 128zM374.528 661.332h274.944c-36.214 71.498-82.511 137.423-137.472 195.756-54.981-58.316-101.281-124.243-137.472-195.756zM374.528 234.668c36.214-71.498 82.511-137.423 137.472-195.756 54.981 58.317 101.281 124.244 137.472 195.756h-274.944zM401.068 36.524c-49.167 60.15-89.746 126.835-120.576 198.144h-137.43c56.57-97.434 149.275-168.63 258.006-198.144zM105.003 320h146.73c-11.061 41.777-16.795 84.785-17.066 128 0.271 43.215 6.006 86.223 17.066 128h-146.73c-26.226-83.318-26.226-172.682 0-256zM143.062 661.332h137.43c30.83 71.31 71.409 137.994 120.576 198.145-108.731-29.515-201.436-100.712-258.006-198.145zM623.148 859.477c49.091-60.164 89.597-126.847 120.361-198.145h137.431c-56.52 97.389-149.143 168.58-257.792 198.145zM918.996 576h-146.729c11.059-41.777 16.794-84.785 17.065-128-0.271-43.215-6.006-86.223-17.065-128h146.644c26.225 83.318 26.225 172.682 0 256h0.084z" />
<glyph unicode="&#xe942;" glyph-name="heart" d="M746.673 920.875c-48.044-0.747-95.040-14.159-136.243-38.881s-75.154-59.878-98.422-101.919c-23.27 42.041-57.221 77.197-98.422 101.919-41.203 24.722-88.202 38.134-136.246 38.881-76.59-3.327-148.749-36.832-200.713-93.194s-79.511-131-76.62-207.606c0-289.068 467.457-622.935 487.338-637.1l24.663-17.452 24.66 17.452c19.884 14.080 487.34 348.032 487.34 637.1 2.89 76.605-24.655 151.244-76.621 207.606s-124.124 89.866-200.714 93.194zM512.008 70.572c-138.796 103.68-426.668 358.4-426.668 549.504-2.917 53.985 15.632 106.934 51.599 147.298s86.437 64.868 140.401 68.169c53.962-3.3 104.433-27.805 140.401-68.169s54.515-93.312 51.599-147.298h85.332c-2.916 53.985 15.631 106.934 51.599 147.298s86.438 64.868 140.401 68.169c53.965-3.3 104.433-27.805 140.401-68.169s54.518-93.312 51.599-147.298c0-191.191-287.872-445.824-426.665-549.504z" />
<glyph unicode="&#xe943;" glyph-name="instagram" d="M332.767 874.675h358.4c136.532 0 247.468-110.933 247.468-247.467v-358.4c0-65.631-26.074-128.576-72.481-174.984-46.41-46.41-109.353-72.481-174.986-72.481h-358.4c-136.534 0-247.467 110.932-247.467 247.465v358.4c0 65.633 26.072 128.577 72.481 174.986s109.352 72.481 174.985 72.481zM324.234 789.342c-40.737 0-79.807-16.183-108.613-44.988s-44.988-67.873-44.988-108.611v-375.468c0-84.908 68.694-153.6 153.601-153.6h375.465c40.737 0 79.808 16.182 108.613 44.989 28.805 28.805 44.987 67.873 44.987 108.611v375.468c0 84.906-68.692 153.599-153.6 153.599h-375.465zM735.967 725.342c14.144 0 27.709-5.619 37.711-15.621s15.621-23.566 15.621-37.713c0-14.144-5.619-27.709-15.621-37.711s-23.567-15.621-37.711-15.621c-14.144 0-27.709 5.619-37.711 15.621s-15.621 23.567-15.621 37.711c0 14.147 5.619 27.712 15.621 37.713s23.567 15.621 37.711 15.621zM511.967 661.343c56.579 0 110.843-22.477 150.851-62.484s62.482-94.269 62.482-150.851c0-56.579-22.474-110.84-62.482-150.848s-94.272-62.484-150.851-62.484c-56.579 0-110.843 22.477-150.851 62.484s-62.482 94.269-62.482 150.848c0 56.581 22.474 110.843 62.482 150.851s94.272 62.484 150.851 62.484zM511.967 576.008c-33.948 0-66.506-13.486-90.509-37.489-24.005-24.005-37.491-56.563-37.491-90.511s13.486-66.504 37.491-90.509c24.003-24.005 56.561-37.491 90.509-37.491s66.506 13.486 90.509 37.491c24.005 24.005 37.491 56.561 37.491 90.509s-13.486 66.506-37.491 90.511c-24.003 24.003-56.561 37.489-90.509 37.489z" />
<glyph unicode="&#xe944;" glyph-name="key" d="M938.675 959.999h-92.672c-16.817 0.048-33.475-3.242-49.009-9.68s-29.637-15.895-41.487-27.824l-356.736-356.695c-68.298 17.623-140.495 12.301-205.472-15.145-64.976-27.446-119.126-75.492-154.109-136.74-34.983-61.251-48.859-132.301-39.49-202.209 9.369-69.911 41.463-134.802 91.339-184.676 49.875-49.876 114.766-81.971 184.676-91.338 69.908-9.37 140.961 4.506 202.209 39.488 61.248 34.985 109.294 89.134 136.74 154.109s32.768 137.175 15.148 205.471l52.864 52.864v103.040h128v128h102.996l72.832 72.832c11.924 11.866 21.379 25.976 27.814 41.516 6.438 15.54 9.731 32.203 9.69 49.024v92.63c0 22.632-8.991 44.337-24.993 60.34s-37.709 24.994-60.339 24.994zM938.675 782.037c0.003-5.61-1.098-11.165-3.244-16.349s-5.292-9.893-9.26-13.859l-47.828-47.829h-153.004v-128h-128v-152.96l-65.92-65.92c15.012-31.616 22.948-66.125 23.255-101.12 0-46.413-13.765-91.784-39.549-130.373-25.784-38.592-62.436-68.669-105.316-86.431s-90.063-22.41-135.583-13.356c-45.522 9.055-87.335 31.406-120.154 64.225-32.819 32.817-55.169 74.632-64.223 120.154-9.055 45.519-4.408 92.703 13.354 135.583s47.839 79.529 86.43 105.316c38.591 25.784 83.961 39.547 130.374 39.547 35.236 2.304 70.374-5.765 101.076-23.209l394.752 394.709c8.023 7.967 18.86 12.457 30.167 12.502h92.672v-92.63zM213.341 192c0-8.44 2.502-16.689 7.191-23.706s11.352-12.485 19.148-15.713c7.796-3.231 16.374-4.076 24.65-2.429s15.88 5.711 21.847 11.679c5.967 5.967 10.030 13.568 11.676 21.844s0.801 16.855-2.427 24.653c-3.231 7.795-8.699 14.459-15.716 19.149-7.014 4.687-15.265 7.188-23.703 7.188-11.316 0-22.169-4.493-30.17-12.495s-12.497-18.854-12.497-30.17z" />
<glyph unicode="&#xe945;" glyph-name="linkedin" d="M810.668 832c22.63 0 44.337-8.99 60.339-24.994s24.993-37.708 24.993-60.34v-597.334c0-22.63-8.991-44.337-24.993-60.339s-37.709-24.993-60.339-24.993h-597.334c-22.632 0-44.337 8.991-60.34 24.993s-24.994 37.709-24.994 60.339v597.334c0 22.632 8.99 44.337 24.994 60.34s37.708 24.994 60.34 24.994h597.334zM789.332 170.668v226.132c0 36.89-14.653 72.269-40.74 98.353-26.084 26.086-61.463 40.74-98.353 40.74-36.268 0-78.508-22.185-98.988-55.465v47.36h-119.040v-357.12h119.040v210.345c0 32.855 26.455 59.735 59.308 59.735 15.841 0 31.035-6.295 42.237-17.498 11.203-11.2 17.495-26.394 17.495-42.237v-210.345h119.040zM293.548 594.772c19.011 0 37.243 7.552 50.685 20.995s20.995 31.675 20.995 50.685c0 39.681-32 72.108-71.68 72.108-19.126 0-37.466-7.597-50.988-21.119s-21.119-31.862-21.119-50.988c0-39.68 32.427-71.68 72.108-71.68zM352.852 170.668v357.12h-118.186v-357.12h118.186z" />
<glyph unicode="&#xe946;" glyph-name="location" d="M510.259-64.346l-29.742 25.495c-41.004 34.332-399.017 343.526-399.017 569.695 0 236.795 191.962 428.757 428.759 428.757 236.795 0 428.756-191.962 428.756-428.757 0-226.171-358.013-535.365-398.845-569.864l-29.911-25.326zM510.259 866.892c-185.508-0.21-335.837-150.54-336.047-336.045 0-142.085 220.263-369.060 336.047-472.947 115.784 103.928 336.044 331.034 336.044 472.947-0.21 185.505-150.536 335.833-336.044 336.045zM510.205 360.886c-93.862 0-169.956 76.091-169.956 169.956 0 93.862 76.093 169.956 169.956 169.956 93.865 0 169.956-76.093 169.956-169.956 0-93.865-76.088-169.956-169.956-169.956zM510.205 615.821c-46.932 0-84.977-38.047-84.977-84.979 0-46.93 38.044-84.977 84.977-84.977s84.979 38.047 84.979 84.977c0 46.932-38.044 84.979-84.979 84.979z" />
<glyph unicode="&#xe947;" glyph-name="menu" d="M1024 806.4h-1024v-85.333h1024v85.333zM1024.018 593.065h-682.668v-85.332h682.668v85.332zM1024.018 166.4h-682.668v-85.332h682.668v85.332zM1024 379.735h-1024v-85.335h1024v85.335z" />
<glyph unicode="&#xe948;" glyph-name="pdf" d="M614.843 960h-401.493c-70.4 0-128-57.6-128-128v-896h853.333v700.16l-323.84 323.84zM640.018 814.507l153.172-153.174h-153.172v153.174zM853.35 21.332h-682.667v810.668c0 23.467 19.2 42.667 42.666 42.667h341.333v-298.667h298.668v-554.668zM297.403 405.332h-84.053v-258.985h53.333v89.6h30.72c47.36 0 85.76 37.972 85.76 84.905 0 46.935-38.4 84.48-85.76 84.48zM297.403 289.28h-30.292v62.72h30.292c17.495 0 32.428-14.508 32.428-31.148s-14.932-31.145-32.428-31.145v-0.428zM512.018 402.348c-11.52 0-22.188 0-32 0h-53.335v-256h53.335c9.812 0 20.48 0 32 0 47.36 0 85.332 37.972 85.332 84.48v86.612c0 46.508-37.972 84.48-85.332 84.48v0.428zM544.018 317.012v-85.332c0-19.2-15.36-32-32-32-5.975 0-18.348 0-32 0v149.332c13.652 0 26.025 0 32 0 16.64 0 32-12.8 32-32zM693.35 146.348h-53.332v258.985h170.665v-53.332h-117.332v-62.72h74.668v-53.332h-74.668v-89.6z" />
<glyph unicode="&#xe949;" glyph-name="phone" d="M945.492 824.747l-135.252 135.253-267.092-267.52 145.492-145.492c-58.452-130.56-148.908-221.44-275.2-276.055l-145.492 145.495-267.948-266.668 135.253-135.252c47.36-47.36 110.934-73.388 179.627-73.388 309.332 0 704 394.668 704 704 0 68.693-26.028 132.267-73.388 179.627zM314.88 26.452c-45.652 0-88.32 17.068-119.040 48.215l-75.093 75.092 146.773 146.772 125.012-125.012 26.028 9.812c168.96 64.428 290.56 185.6 360.532 360.108l10.668 26.028-125.012 125.44 146.772 146.772 75.092-75.093c31.148-31.147 48.215-73.387 48.215-119.039 0-265.815-352.855-618.668-618.668-618.668l-1.28-0.428z" />
<glyph unicode="&#xe94a;" glyph-name="search" d="M1025.364-5.036l-267.177 267.18c69.402 84.882 103.524 193.19 95.311 302.525-8.215 109.335-58.14 211.329-139.446 284.887-81.308 73.558-187.776 113.051-297.385 110.31s-213.971-47.505-291.5-125.034c-77.529-77.529-122.294-181.891-125.034-291.5s36.752-216.077 110.31-297.385c73.558-81.306 175.552-131.231 284.887-139.446 109.335-8.212 217.644 25.91 302.525 95.311l267.18-267.177 60.329 60.329zM428.032 190.636c-67.51 0-133.501 20.017-189.634 57.523s-99.881 90.816-125.716 153.185c-25.835 62.372-32.594 131.003-19.424 197.215s45.679 127.032 93.415 174.768c47.736 47.736 108.556 80.245 174.768 93.415s134.843 6.411 197.215-19.424c62.369-25.835 115.679-69.584 153.185-125.716s57.523-122.125 57.523-189.634c-0.1-90.496-36.096-177.257-100.086-241.247s-150.751-99.986-241.247-100.086z" />
<glyph unicode="&#xe94b;" glyph-name="tiktok" d="M708.273 711.68c-29.158 33.3-45.23 76.058-45.225 120.32h-131.84v-529.068c-0.996-28.636-13.076-55.767-33.695-75.668-20.616-19.901-48.159-31.014-76.813-30.996-60.588 0-110.932 49.492-110.932 110.932 0 73.388 70.825 128.428 143.785 105.812v134.828c-147.2 19.628-276.053-94.72-276.053-240.64 0-142.080 117.76-243.2 242.773-243.2 133.975 0 242.775 108.8 242.775 243.2v268.372c53.46-38.392 117.647-58.993 183.465-58.88v131.84c0 0-80.212-3.84-138.24 63.148z" />
<glyph unicode="&#xe94d;" glyph-name="youtube" d="M426.634 320.008l221.44 128-221.44 128v-256zM919.859 654.088c5.548-20.052 9.388-46.932 11.948-81.065 2.988-34.135 4.268-63.575 4.268-89.175l2.56-35.84c0-93.44-6.828-162.132-18.775-206.080-10.665-38.4-35.412-63.145-73.812-73.812-20.052-5.548-56.748-9.388-113.068-11.948-55.465-2.985-106.24-4.265-153.172-4.265l-67.84-2.56c-178.772 0-290.134 6.825-334.080 18.772-38.4 10.668-63.147 35.412-73.814 73.812-5.546 20.055-9.386 46.935-11.946 81.068-2.987 34.132-4.267 63.572-4.267 89.172l-2.56 35.84c0 93.44 6.827 162.135 18.773 206.080 10.667 38.4 35.414 63.147 73.814 73.814 20.053 5.547 56.746 9.387 113.068 11.947 55.465 2.986 106.24 4.266 153.172 4.266l67.84 2.56c178.772 0 290.132-6.826 334.080-18.773 38.4-10.667 63.148-35.414 73.812-73.814z" />
<glyph unicode="&#xe94e;" glyph-name="save" d="M750.932 857.6h-546.132c-27.158 0-53.204-10.789-72.408-29.992s-29.992-45.25-29.992-72.408v-716.8h819.2v648.532l-170.668 170.668zM341.332 789.333h341.335v-136.533h-341.335v136.533zM853.332 106.668h-682.666v648.532c0 9.053 3.596 17.735 9.997 24.136s15.083 9.997 24.136 9.997h68.268v-204.801h477.865v176.538l102.4-102.401v-552.003zM512.008 516.262c-27.003 0-53.399-8.008-75.853-23.009-22.454-15.004-39.954-36.326-50.286-61.276-10.335-24.947-13.038-52.398-7.77-78.884s18.271-50.813 37.366-69.908c19.095-19.092 43.423-32.097 69.906-37.366 26.486-5.268 53.939-2.565 78.886 7.77s46.272 27.835 61.274 50.286c15.004 22.454 23.012 48.85 23.012 75.855 0 36.211-14.385 70.938-39.99 96.543s-60.334 39.99-96.545 39.99zM512.008 311.462c-13.501 0-26.701 4.004-37.926 11.505s-19.976 18.163-25.144 30.638c-5.166 12.475-6.518 26.199-3.884 39.442s9.137 25.405 18.683 34.954c9.549 9.546 21.711 16.049 34.954 18.683s26.967 1.283 39.442-3.886c12.475-5.166 23.137-13.916 30.638-25.142s11.505-24.425 11.505-37.926c0-18.107-7.194-35.471-19.996-48.271-12.803-12.803-30.164-19.996-48.271-19.996z" />
<glyph unicode="&#xe94f;" glyph-name="copy" d="M844.8 716.117l-133.586 141.483h-265.774c-26.478 0-51.873-10.789-70.597-29.992s-29.243-45.25-29.243-72.408v-34.133h-66.56c-26.479 0-51.874-10.789-70.598-29.992-18.724-19.205-29.242-45.251-29.242-72.407v-580.268h532.48v170.668h133.12v507.050zM645.12 106.668h-399.36v512c0 9.052 3.506 17.733 9.747 24.136 6.242 6.4 14.706 9.997 23.533 9.997h66.56v-443.732h299.52v-102.4zM412.16 277.332v477.868c0 9.053 3.507 17.735 9.748 24.136s14.705 9.997 23.532 9.997h199.68v-136.533h133.12v-375.468h-366.080z" />
<glyph unicode="&#xe950;" glyph-name="lighting" d="M716.8 780.8c-64 58.88-153.6 87.040-240.64 76.8-138.24-17.92-250.88-128-268.8-266.24-12.8-99.84 23.040-197.12 94.72-263.68 46.080-43.52 71.68-99.84 71.68-156.16v-133.12h273.92v125.44c0 61.44 23.040 117.76 66.56 156.16 66.56 58.88 104.96 143.36 104.96 230.4s-38.4 171.52-102.4 230.4zM581.12 107.52h-135.68v64c0 2.56 0 2.56 0 5.12h138.24c0-2.56 0-7.68 0-10.24v-58.88zM668.16 371.2c-38.4-33.28-64-76.8-79.36-128h-46.080v245.76c38.4 15.36 69.12 51.2 69.12 97.28h-69.12c0-17.92-15.36-33.28-33.28-33.28s-33.28 15.36-33.28 33.28h-66.56c0-43.52 28.16-81.92 69.12-97.28v-245.76h-46.080c-15.36 48.64-43.52 94.72-84.48 133.12-56.32 53.76-84.48 128-74.24 207.36 12.8 107.52 102.4 194.56 209.92 204.8 69.12 7.68 135.68-12.8 186.88-58.88s79.36-110.080 79.36-179.2c0-69.12-28.16-133.12-81.92-179.2z" />
<glyph unicode="&#xe951;" glyph-name="eletric" d="M521.897 38.4h-131.31l68.265 273.068h-141.071c-13.635 0.005-27.077 3.2-39.258 9.329-12.178 6.126-22.755 15.020-30.884 25.964-8.129 10.947-13.585 23.639-15.933 37.071-2.348 13.43-1.521 27.223 2.413 40.276l131.107 433.492h323.141l-102.4-273.068h137.318c15.621-0.010 30.95-4.252 44.357-12.278 13.404-8.026 24.384-19.533 31.77-33.3 7.388-13.765 10.908-29.276 10.184-44.882-0.722-15.608-5.66-30.728-14.29-43.75l-273.408-411.922zM478.036 106.668h7.235l253.133 381.404c1.815 2.737 2.852 5.911 3.005 9.19 0.154 3.277-0.586 6.536-2.138 9.428-1.549 2.893-3.855 5.309-6.671 6.996-2.816 1.684-6.034 2.578-9.316 2.58h-235.827l102.4 273.066h-173.978l-116.429-384.887c-0.87-2.862-1.057-5.888-0.545-8.837 0.509-2.947 1.705-5.732 3.487-8.136 1.782-2.401 4.101-4.355 6.774-5.699s5.622-2.043 8.614-2.043h228.692l-68.436-273.065z" />
<glyph unicode="&#xe952;" glyph-name="home" d="M882.312 595.387l-29.66 23.212h0.717v170.667h-68.268v-117.795l-209.989 164.319c-37.135 29.082-89.052 29.082-126.19 0l-307.234-240.402c-24.952-19.523-39.288-48.947-39.288-80.655v-476.401h307.2v307.2c0 18.808 15.291 34.135 34.132 34.135h136.535c18.842 0 34.132-15.327 34.132-34.135v-307.2h307.2v476.401c0 31.708-14.336 61.133-39.288 80.655zM853.332 106.598h-170.665v238.932c0 56.458-45.944 102.4-102.4 102.4h-136.535c-56.456 0-102.4-45.942-102.4-102.4v-238.932h-170.666v408.133c0 10.58 4.778 20.378 13.107 26.895l307.201 240.402c12.39 9.694 29.66 9.694 42.051 0l307.2-240.402c8.33-6.518 13.107-16.315 13.107-26.895v-408.133z" />
<glyph unicode="&#xe953;" glyph-name="technical-view" d="M221.867 601.6c-64.854 0-119.467-54.612-119.467-119.468 0-64.852 54.613-119.465 119.467-119.465s119.466 54.612 119.466 119.465c0 64.855-54.612 119.468-119.466 119.468zM221.867 430.932c-27.307 0-51.2 23.895-51.2 51.2 0 27.308 23.893 51.2 51.2 51.2s51.201-23.892 51.201-51.2c0-27.305-23.894-51.2-51.201-51.2zM221.867 294.4c-64.854 0-119.467-54.612-119.467-119.468 0-64.852 54.613-119.465 119.467-119.465s119.466 54.612 119.466 119.465c0 64.855-54.612 119.468-119.466 119.468zM221.867 123.732c-27.307 0-51.2 23.895-51.2 51.2 0 27.308 23.893 51.2 51.2 51.2s51.201-23.892 51.201-51.2c0-27.305-23.894-51.2-51.201-51.2zM921.6 584.532h-512v-68.265h512v68.265zM819.2 448h-409.6v-68.268h409.6v68.268zM921.6 277.332h-512v-68.265h512v68.265zM819.2 140.8h-409.6v-68.268h409.6v68.268zM819.2 857.6h-614.4c-58.027 0-102.4-47.787-102.4-102.4v-102.4h819.2v102.4c0 54.613-44.372 102.4-102.4 102.4zM853.332 721.067h-682.666v34.133c0 20.48 13.653 34.133 34.133 34.133h614.4c20.48 0 34.132-13.653 34.132-34.133v-34.133z" />
</font>
</defs>
</svg>
